东方辉针城OST原声分轨文件参数错误

By ex768 at 2023-12-26 • 0人收藏 • 322人看过

"国际线\东方Project\官方音乐\上海アリス幻樂団ZUN\2013.08.12 [TH14] 東方輝針城 ~ Double Dealing Character [C84].rar\東方輝針城 ~ Double Dealing Character OST.cue"分轨(.cue)配置文件参数错误,造成无法正常分轨,其它线路暂未验证

问题表现为:所有分轨在整轨中开始时刻均为00:00:00

希望尽快修改文件

4 个回复 | 最后更新于 2024-02-16
2023-12-26   #1

跟进:国内1先,国内2线均有此问题,望尽快解决

2023-12-27   #2

经过手工修复(实际上是重写)分轨配置,已解决该问题

解决方案:

将压缩包中的東方輝針城 ~ Double Dealing Character OST.cue用记事本打开,并内容改为如下文本,望尽快重新上传修复后的文件!

REM DATE 2013

PERFORMER "ZUN"

TITLE "TH14 東方輝針城 ~ Double Dealing Character"

FILE "TH14 東方輝針城 ~ Double Dealing Character.flac" WAVE

  TRACK 01 AUDIO

    TITLE "不思議なお祓い棒"

    PERFORMER "ZUN"

    INDEX 01 00:00:00

  TRACK 02 AUDIO

    TITLE "ミストレイク"

    PERFORMER "ZUN"

    INDEX 01 03:39:27

  TRACK 03 AUDIO

    TITLE "秘境のマーメイド"

    PERFORMER "ZUN"

    INDEX 01 06:36:28

  TRACK 04 AUDIO

    TITLE "運河を行き交う人妖"

    PERFORMER "ZUN"

    INDEX 01 09:33:20

  TRACK 05 AUDIO

    TITLE "柳の下のデュラハン"

    PERFORMER "ZUN"

    INDEX 01 12:42:02

  TRACK 06 AUDIO

    TITLE "満月の竹林"

    PERFORMER "ZUN"

    INDEX 01 16:16:14

  TRACK 07 AUDIO

    TITLE "孤独なウェアウルフ"

    PERFORMER "ZUN"

    INDEX 01 21:00:27

  TRACK 08 AUDIO

    TITLE "マジカルストーム"

    PERFORMER "ZUN"

    INDEX 01 24:18:10

  TRACK 09 AUDIO

    TITLE "幻想浄瑠璃"

    PERFORMER "ZUN"

    INDEX 01 29:47:29

  TRACK 10 AUDIO

    TITLE "空中に沈む輝針城"

    PERFORMER "ZUN"

    INDEX 01 33:54:38

  TRACK 11 AUDIO

    TITLE "リバースイデオロギー"

    PERFORMER "ZUN"

    INDEX 01 38:28:24

  TRACK 12 AUDIO

    TITLE "針小棒大の天守閣"

    PERFORMER "ZUN"

    INDEX 01 42:45:39

  TRACK 13 AUDIO

    TITLE "輝く針の小人族 ~ Little Princess"

    PERFORMER "ZUN"

    INDEX 01 45:51:25

  TRACK 14 AUDIO

    TITLE "小槌の魔力"

    PERFORMER "ZUN"

    INDEX 01 53:22:52

  TRACK 15 AUDIO

    TITLE "不思議な不思議な道具達"

    PERFORMER "ZUN"

    INDEX 01 56:09:14

  TRACK 16 AUDIO

    TITLE "魔力の雷雲"

    PERFORMER "ZUN"

    INDEX 01 58:25:16

  TRACK 17 AUDIO

    TITLE "始原のビート ~ Pristine Beat"

    PERFORMER "ZUN"

    INDEX 01 63:09:07

  TRACK 18 AUDIO

    TITLE "プレイヤーズスコア"

    PERFORMER "ZUN"

    INDEX 01 69:52:27


2024-01-31   #3

国际站的解决了(后缀名为zip),分流还要再等等

2024-02-16   #4

回复#3 @玲子 :ok,非常感谢

登录后方可回帖

登 录
信息栏

用于替代原来的留言板。

原来留言板的【回复】等操作不是很方便,而且各种东西混在一起不方便查看,所以最后搞了个这个。有点复古,但胜在简洁易操作。

===========================

要添加留言,请先注册账号,然后点击【发新贴】即可。

点击这里注册

点击这里登录

留言时请注意添加合适的tag(网站称为【话题】),这里我列出几个话题以供参考【请注意不要混淆莉莉云和下载站,莉莉云只是个网盘!!】

【莉莉云】、【下载站】、【东方狗APP】、【汉化组】、【求资源】、【网站维护】、【问题反馈】、【个人建议】、【技术讨论】

...

话题也可自拟,能达到概括主题、言简意赅即可。

===========================

对于问题反馈,我会使用【待解决】来表达我已注意到该问题,【解决中、已解决、无法解决】来表示状态。

当然,这里也可以进行一些东方相关的讨论,以及电脑技术相关的讨论(比如游戏打不开,乱码之类的)

希望大家发帖前认真阅读本说明,谢谢。

Loading...